#TITLE:Border of Life;
#SUBTITLE:;
#ARTIST:=NeutraL=;
#TITLETRANSLIT:;
#SUBTITLETRANSLIT:;
#ARTISTTRANSLIT:;
#CREDIT:;
#BANNER:Border of Life - BN.png;
#BACKGROUND:Border of Life - BG.png;
#LYRICSPATH:;
#CDTITLE:cdtitleGpop.png;
#MUSIC:Border of Life.ogg;
#OFFSET:-0.200;
#SAMPLESTART:36.220;
#SAMPLELENGTH:12.000;
#SELECTABLE:YES;
#BPMS:0.000=140.000;
#STOPS:;
#BGCHANGES:;
// cache tags:
#FIRSTBEAT:0.000;
#LASTBEAT:660.000;
#SONGFILENAME:Songs/Music V.I.P ^_^/Border of Life/Border of Life.sm;
#HASMUSIC:1;
#HASBANNER:1;
#MUSICLENGTH:288.757;
// end cache tags

//---------------dance-single - ----------------
#NOTES:
     dance-single:
     :
     Challenge:
     13:
     1.000,1.000,1.000,0.142,1.000,2135.000,546.000,41.000,0.000,28.000:
1001
0100
0010
1100
0010
0100
0011
0100
1000
0101
0010
0100
1001
0000
0000
0000
,
1100
0001
0110
1000
0011
0100
1001
0010
1100
0010
0101
1000
0010
0100
0011
0100
,
1000
0010
0101
1000
0110
0001
1010
0100
1001
0010
1001
0100
0010
0001
1100
0010
,
1001
0100
0011
0100
1010
0100
1001
0010
0101
0010
1001
0010
0100
0001
0110
1000
,
0010
0100
1001
0010
1100
0010
1100
0001
1100
0010
1100
0010
0001
0100
1010
0001
,
1010
0000
1001
0000
0011
0000
0110
0000
1100
0000
1100
0010
0100
0001
0110
0000
,
1000
0100
0011
0000
0110
0000
1001
0010
1100
0000
1100
0001
0100
0010
1001
0100
,
0011
0000
1001
0000
1010
0000
0101
0010
1001
0000
1001
0010
0100
0001
0110
0000
,
0001
0100
0011
0000
1001
0000
1100
0010
1001
0000
0101
0010
0101
1000
0101
0010
,
1001
0000
1100
0010
0101
0000
0011
0100
1100
0000
1001
0010
0100
0001
0110
1000
,
0110
0000
1001
0000
1100
0000
0110
0010
1001
0000
1001
0100
0010
0001
0101
0010
,
1001
0000
1100
0000
0110
0000
0011
1000
1001
0000
0101
0010
1000
0100
0011
0100
,
1001
0000
0000
0000
1100
0000
0000
0000
0110
0000
0000
0000
0011
0000
1000
0000
0101
0000
0000
0000
0110
0000
0000
0000
1000
0100
0010
0001
1000
0100
0010
0000
,
2002
0000
0000
3003
0000
0000
0001
0000
0010
0000
1000
0000
0001
0000
0100
0000
1000
0000
0001
0000
0010
0000
0100
0000
,
0001
0000
0100
0000
1000
0000
0001
0000
0010
0000
0100
0000
0001
0000
0010
0000
1000
0000
1001
0000
0000
2002
0000
0000
,
0000
0000
0000
3000
0000
0000
1000
0000
0100
0000
0010
0000
1000
0000
0100
0000
0010
0000
1000
0000
0100
0000
0010
0000
,
1000
0000
0100
0000
0010
0000
1000
0000
0010
0000
0100
0000
1000
0000
0010
0000
0100
0000
1010
0000
0000
0100
0000
0000
,
1003
0100
0011
1001
0101
0011
1001
0100
0110
1100
0110
0101
,
1100
0000
0010
0000
0101
0000
1100
0000
0110
0000
0101
0000
1100
0000
0110
0000
1001
0000
1001
0000
0000
0001
0000
0000
,
1001
0001
0001
1010
0110
0011
1010
0100
0101
1100
0110
0101
,
1100
0000
0000
0000
0010
0000
0000
0000
0101
0000
0000
0000
1001
0000
0000
0000
0101
0000
0000
0000
0011
0000
0000
0000
1001
0000
0000
0000
0000
0000
0000
0000
0000
0000
0000
0000
1001
0000
0000
0100
0000
0000
0011
0000
0000
0100
0000
0000
,
1001
0000
1000
0100
0010
0000
1001
0000
0100
0010
1000
0010
0101
0000
1000
0100
,
1100
0000
0001
0010
0100
0000
0011
0000
1000
0010
0100
1000
0101
0000
1000
0010
,
1001
0000
0010
0100
1100
0000
0100
0010
1001
0000
0010
0001
1001
0000
0100
0010
,
1001
0000
1000
0100
0001
0010
1000
0100
0010
0001
1000
0100
0001
0010
0100
1000
,
0011
0000
1000
0010
0100
0000
0011
0000
0100
1000
0010
0100
0011
0000
1000
0100
,
1100
0000
0001
0100
0010
0000
1001
0000
0100
0010
1000
0010
0101
0000
0001
0010
,
0110
0000
0100
1000
0011
0000
0100
0010
1001
0000
0100
0010
1100
0000
0010
0001
,
0110
1000
0100
0010
0001
0010
1000
0100
0010
0001
0010
1000
0110
0001
0110
1000
,
0011
0000
1000
0010
0100
0000
0011
0000
0100
1000
0010
0100
1001
0000
0010
0100
,
1100
0000
0100
0010
0001
0000
1010
0000
0100
0001
1000
0100
0011
0000
0100
1000
,
0101
0000
1000
0100
0011
0000
0100
1000
0101
0000
0010
0100
0110
0000
1000
0001
,
1100
0010
0001
0100
0010
1000
0100
0001
0010
0100
0001
1000
0100
0010
0001
1000
,
0101
0000
0100
0010
1000
0000
1001
0000
0010
0100
1000
0010
0101
0000
1000
0010
,
0101
0000
0001
0010
0100
0000
1100
0000
1000
0100
0001
0010
1001
0000
0100
0010
,
1100
0000
0001
0010
0110
0000
1000
0001
1010
0000
0100
0001
1001
0000
0100
0010
,
1001
0000
0000
0000
0000
0000
0000
0000
1001
0000
0000
0000
0000
0000
0000
0000
1000
0000
0100
0000
0010
0000
0000
0000
1000
0100
0010
0001
1000
0100
0010
0001
,
1100
0000
1001
0000
0101
0000
0110
0001
1010
0000
1010
0100
0010
0001
1100
0001
,
1100
0000
0110
0000
0011
0000
0110
1000
0101
0000
0101
0010
1000
0001
0110
1000
,
0110
0000
0011
0000
1001
0000
1010
0100
0101
0000
0101
0010
1000
0001
1001
0100
,
1001
0000
0011
0000
0110
0000
1100
0010
1001
0000
1001
0100
1001
0010
1100
0001
,
1100
0000
1001
0000
0101
0000
0110
1000
0101
0000
0101
0010
1000
0100
0011
0100
,
0011
0000
0110
0000
1100
0000
1001
0100
1001
0000
1001
0100
0010
0001
1010
0100
,
1001
0000
1100
0000
0110
0000
0011
0100
1001
0000
1001
0100
0010
0001
0110
0001
,
0110
0000
1010
0000
1001
0000
1100
0010
1100
0001
1100
0010
1001
0100
0011
0000
,
0000
1000
0100
0010
0001
0100
0010
1000
0001
0010
0100
0001
0010
1000
0100
0010
,
0001
0100
0010
0100
0001
0000
1000
0100
0010
0000
0001
0000
0100
0000
0100
0000
,
0000
0000
0000
0001
0000
0000
1010
0000
0000
0100
0000
0000
0001
0000
0000
0000
0000
0000
0000
0000
0010
0000
0100
0000
1000
0000
0000
0000
0000
0000
0001
0000
0000
0010
0000
0000
0001
0000
0000
0100
0000
0000
0010
0000
0000
1000
0000
0000
,
0101
0010
0100
1000
0101
0010
0100
1000
0001
0100
0010
1000
0001
0100
0010
1000
,
0000
1001
0100
0010
1001
0000
0000
1100
0011
0000
0000
1000
0100
0010
0001
0100
,
1000
0010
0100
0001
0010
0100
0001
0010
0100
1000
0010
0100
0001
0000
1000
0100
,
0001
0000
1001
0100
1000
0100
0010
0001
0010
0001
1000
0010
0100
0001
1000
0100
,
1001
0001
0001
1000
1000
1000
0100
0100
0100
0010
0010
0010
,
0101
1000
1000
0110
1000
1000
0100
1000
1000
0110
1000
1000
,
0001
0000
1000
0000
1000
0000
0011
0000
1000
0000
1000
0000
0100
0000
1000
0000
1000
0000
0110
0000
0000
0001
0000
0000
,
1001
1000
1000
0101
1000
1000
0100
1000
1000
0011
1000
1000
,
0001
0000
1000
0000
1000
0000
0011
0000
1000
0000
1000
0000
0010
0000
1000
0000
1000
0000
0101
0000
0000
0010
0000
0000
,
1001
0001
0001
0110
0001
0001
1000
0001
0001
0110
0001
0001
,
1000
0000
0001
0000
0001
0000
1100
0000
0001
0000
0001
0000
0010
0000
0001
0000
0001
0000
1010
0000
0000
0100
0000
0000
,
1001
0001
0001
1100
0001
0001
1000
0001
0001
1010
0001
0001
,
0100
0000
0001
0000
0001
0000
0110
0000
0001
0000
0001
0000
0010
0000
0001
0000
0001
0000
1100
0000
0000
0001
0000
0000
,
1001
0100
1000
0011
0100
1000
0010
0100
1000
0011
0100
1000
,
0001
0000
0100
0000
1000
0000
0011
0000
0100
0000
1000
0000
0010
0000
0101
0000
1000
0000
0011
0000
0000
0100
1001
0000
,
1000
0010
0001
1100
0010
0001
0100
0010
0001
1100
0010
0001
,
0100
0000
0010
0000
0001
0000
1100
0000
0010
0000
0001
0000
0100
0000
1010
0000
0001
0000
1100
0000
0000
0010
0101
0000
,
1001
0010
1000
0101
0010
1000
0001
0010
0100
1001
0010
0100
,
0001
0000
0010
0000
1000
0000
0101
0000
0010
0000
1000
0000
0001
0000
1010
0000
0100
0000
1001
0000
0000
0100
0011
0000
,
1001
0100
0001
1010
0100
0001
1000
0100
0010
1001
0100
0010
,
1000
0000
0000
0000
0100
0000
0000
0000
0001
0000
0000
0000
1010
0000
0000
0000
0100
0000
0000
0000
0001
0000
0000
0000
1001
0000
0000
0000
0101
0000
0000
0000
0010
0000
0000
0000
1001
0000
0000
0000
0000
0000
1100
0000
0000
0011
0000
0000
,
1100
0010
0001
0100
0010
1000
0100
0001
0010
0100
1000
0010
0001
0010
0100
1000
,
0001
0010
1000
0100
0001
0010
0100
1000
0100
0010
0001
1000
0100
0010
0001
0010
,
1000
0000
0000
0000
0000
0000
0000
0000
0000
0000
0000
0000
0100
0000
0000
0000
0000
0000
0010
0000
0000
0000
0000
0000
0001
0000
0000
0000
0000
0000
0000
0000
0010
0000
0000
0000
0000
0000
0000
0000
0100
0000
0000
0000
0000
0000
0000
0000
1000
0000
0000
0000
0000
0000
0000
0000
0001
0000
0000
0000
0000
0000
0000
0000
0010
0000
0000
0000
0000
0000
0000
0000
1000
0000
0000
0000
0000
0000
0000
0000
0000
0000
0000
0000
0001
0000
0000
0000
0000
0000
0000
0000
0000
0000
0000
0000
1000
0000
0000
0000
0000
0000
0000
0000
0000
0000
0000
0000
0010
0000
0000
0000
0000
0000
0000
0000
0000
0000
0000
0000
0100
0000
0000
0000
0000
0000
0000
0000
0000
0000
0000
0000
1000
0000
0000
0000
0000
0000
0000
0000
0000
0000
0000
0000
0001
0000
0000
0000
0000
0000
0000
0000
0000
0000
0000
0000
0010
0000
0000
0000
0000
0000
0000
0000
0000
0000
0000
0000
0100
0000
0000
0000
0000
0000
0000
0000
0000
0000
0000
0000
0001
0000
0000
0000
0000
0000
0000
0000
0000
0000
0000
0000
,
1000
0000
0100
0000
0010
0000
1000
0000
0100
0000
0001
0000
1000
0000
0010
0000
0001
0000
0100
0000
0010
0000
0001
0000
1000
0000
0000
0010
0000
0000
0100
0000
0000
0001
0000
0000
0010
0000
0000
0100
0000
0000
1000
0000
0000
0001
0000
0000
,
1010
0100
1000
0001
1000
0010
1000
0010
1000
0001
1000
0100
1000
0100
1000
0001
,
1000
0010
1000
0010
1000
0001
1000
0100
1000
0100
0001
0010
0100
1000
0100
0001
,
0010
0000
0000
0000
0100
0000
0000
0000
1000
0000
0000
0000
0001
0000
0000
0000
0010
0000
0000
0000
1000
0000
0000
0000
0001
0000
0000
0000
0100
0000
0000
0000
1000
0000
0000
0000
0001
0000
0000
0000
1000
0100
0010
0001
1000
0000
0000
0000
,
0001
0000
0000
0010
0000
0000
0100
0000
0000
0001
0000
0000
0010
0000
0000
0100
0000
0000
1000
0000
0000
0010
0000
0000
1000
0000
0100
0000
0010
0000
0001
0000
1000
0000
0001
0000
1100
0000
0000
0000
0000
0000
0110
0000
0000
0001
0000
0000
,
1100
0000
0001
0010
0100
1000
0011
0000
1000
0010
0100
0001
1010
0000
0001
0010
,
0011
0000
1000
0100
0010
0100
0101
0000
1000
0010
0100
0001
1100
0000
0001
0010
,
1100
0000
0100
0010
0011
0000
1000
0010
0101
0000
0001
0010
1010
0000
0010
0100
,
1001
0010
0100
0001
0010
1000
0100
0001
0010
0100
1000
0010
0100
0001
0010
0100
,
1100
0000
1000
0010
0100
0001
1100
0000
0001
0010
0100
1000
0011
0000
1000
0010
,
0101
0000
1000
0010
0100
0001
1100
0000
0001
0010
0100
1000
1001
0000
1000
0010
,
0101
0000
0001
0100
1010
0000
1000
0100
0011
0000
0001
0010
1100
0000
0100
0010
,
1001
0100
0010
0001
1000
0100
0010
0001
0100
1000
0001
0010
1100
0010
0101
1000
,
0011
0000
1000
0010
0100
0001
1100
0000
0001
0010
0100
1000
1001
0000
1000
0010
,
0101
0000
0010
0100
1000
0010
1010
0000
1000
0100
0010
0001
1001
0000
1000
0010
,
0110
0000
1000
0100
0110
0000
0010
0001
1100
0000
0001
0100
0101
0000
1000
0001
,
0110
1000
0010
0100
0001
0100
0010
1000
0100
0001
0010
0100
1000
0010
0100
0001
,
1010
0000
0100
0001
0010
0100
1001
0000
1000
0100
0001
0010
0101
0000
1000
0010
,
0101
0000
1000
0100
0010
0001
1001
0000
1000
0010
0100
0001
1010
0000
0100
0010
,
1001
0000
1000
0100
0011
0000
0100
0010
1001
0000
0100
0001
1010
0000
1000
0001
,
1100
0000
0000
0000
0000
0000
0000
0000
1001
0000
0000
0000
0000
0000
0000
0000
1000
0100
0010
0001
1000
0100
0010
0001
1000
0100
0010
0001
1000
0100
0010
0001
,
1000
0001
1000
0010
1000
0100
1000
0010
1000
0001
1000
0010
1000
0100
1000
0010
,
1000
0001
1000
0010
1000
0100
1000
0010
1000
0001
1000
0010
1000
0100
1000
0010
,
1001
0010
0100
0001
0010
0100
1000
0100
1001
0100
0010
1000
0100
0010
0001
0100
,
1001
0010
0100
0010
0001
0010
1000
0010
0001
0100
1000
0100
0010
0001
0100
0010
,
1001
0010
0100
0010
0001
0010
0100
0010
0001
0100
0010
1000
0100
0010
0001
0100
,
1000
0100
0010
0100
1000
0100
0010
0100
1000
1000
0100
0010
0001
0100
0010
1000
,
0101
0010
0100
0001
0010
0100
0010
0001
1010
0100
0010
1000
0100
0010
0001
0100
,
1001
0010
0100
1000
0001
0010
0100
1000
0001
0010
0100
1000
0010
0100
0001
0010
,
0101
1000
0001
0100
0001
0010
0001
0100
0001
1000
0001
0100
0001
0010
0001
0100
,
0001
1000
0001
0100
0001
0010
0001
0100
0001
1000
0001
0100
0001
0010
0001
0100
,
1001
0100
0010
1000
0100
0010
0001
0100
1001
0010
0100
0001
0010
0100
1000
0001
,
1010
0100
0010
0001
0100
0010
0001
0010
1000
0100
0010
0001
0010
0100
1000
0010
,
1001
0100
0010
0100
1000
0100
0010
0100
1000
0100
0010
0001
1000
0100
0010
0100
,
0001
0010
0100
0010
0001
0010
0100
0010
0001
0001
1000
0010
0100
0001
0010
0001
,
1010
0100
0010
1000
0100
0010
0001
0100
1001
0010
0100
0001
0010
0100
0010
0100
,
1001
0100
0010
0001
1010
0100
0010
0001
1000
0100
0010
0001
1001
0010
0101
1000
,
1002
0000
0000
0000
0000
0000
1000
0000
0010
0203
1000
0000
0010
0000
0001
0000
1000
0000
0321
0000
1000
0000
0100
0000
,
2031
0000
0000
3200
0000
0000
0320
0000
,
1032
0203
0321
0230
,
2310
0000
0000
0000
0000
0000
3200
0320
0032
0000
0000
0000
0203
0000
0320
0000
,
1032
0000
0000
0023
0000
0000
2030
0000
,
3021
0000
0000
0230
0000
0000
0302
0000
,
2013
0000
0000
3200
0001
0000
0320
0000
,
0032
0000
0000
0203
1000
0000
0320
0000
,
1032
0100
0000
1100
,
1010
0000
0100
1000
0000
0000
1100
0000
,
1010
1100
1010
1100
,
1010
0100
0000
0100
,
2003
0000
0001
0010
0000
0000
0011
0000
,
3201
0000
0001
0010
0000
0000
0011
0000
,
1302
0000
0000
0000
1100
0000
0000
0003
1002
0000
0000
0000
1100
0000
0000
0003
,
2001
0000
0000
0000
0101
0000
0000
3000
2001
0000
0010
0100
0011
0001
0110
0010
,
3101
0000
1000
0100
0010
0001
1100
0000
0001
0100
0010
0100
0011
0000
1000
0100
,
1100
0000
0001
0100
0010
1000
0101
0000
0010
0100
1000
0100
0011
0000
1000
0010
,
0101
0000
0010
0100
0110
0000
1000
0100
0011
0000
0001
0100
0101
0000
0010
1000
,
0101
0010
1000
0100
0001
0100
1000
0010
0100
0001
0010
0100
1000
0010
0001
0100
,
1010
0000
0001
0010
0100
1000
0101
0000
0001
0010
0100
1000
0011
0000
1000
0010
,
0101
0000
1000
0100
0010
0001
1001
0000
0010
0100
0010
0100
1001
0000
0100
0001
,
1100
0000
1000
0010
0101
0000
0001
0010
0110
0000
1000
0010
0101
0000
1000
0001
,
1001
0010
0100
0001
1000
0010
0100
0001
0010
0100
1000
0001
0110
1000
0101
0010
,
1001
0000
1000
0100
0010
0001
1001
0000
0010
0100
0001
0010
1100
0000
1000
0100
,
0011
0000
0100
0010
1000
0001
1010
0000
0100
0001
1000
0010
1001
0000
1000
0100
,
0011
0000
0100
0010
1001
0000
0100
0010
0011
0000
0100
1000
1100
0000
0001
0100
,
1010
0001
0100
0010
1000
0100
0001
0010
0100
1000
0010
0100
0001
0010
1000
0001
,
1010
0000
0100
0001
0010
0100
1001
0000
0100
0010
1000
0010
0101
0000
0001
0010
,
1100
0000
1000
0010
0100
0001
1001
0000
0100
0010
0001
1000
1010
0000
0100
0001
,
1010
0000
0100
0010
1100
0000
0001
0010
1100
0000
0010
0100
1001
0000
0001
0010
,
1100
0000
0010
0000
1001
0000
0010
0000
1000
0100
0010
0001
1100
0010
0101
0010
,
1100
0001
1000
0010
1000
0100
1001
0010
1000
0001
1000
0010
1001
0100
1000
0010
,
1100
0001
1000
0010
1000
0100
1001
0010
1000
0001
1000
0010
1001
0100
1000
0010
,
1001
0010
0100
0001
1010
0100
1000
0100
1001
0100
0010
1000
0101
0010
0001
0100
,
1001
0010
0100
0010
0001
0010
1000
0010
0001
0100
1000
0100
0010
0001
0100
0010
,
1001
0010
0100
0010
0001
0010
1100
0010
0001
0100
0010
1000
0101
0010
0001
0100
,
1001
0100
0010
0100
1000
0100
0011
0100
1000
1000
0100
0010
1001
0100
0010
1000
,
0101
0010
0100
0001
1010
0100
0010
0001
1010
0100
0010
1000
0101
0010
0001
0100
,
1001
0010
0100
1000
0001
0010
0100
1000
0001
0010
0100
1000
0011
0100
1001
0010
,
0101
1000
0001
0100
0001
0010
1001
0100
0001
1000
0001
0100
1001
0010
0001
0100
,
0011
1000
0001
0100
0001
0010
1001
0100
0001
1000
0001
0100
1001
0010
0001
0100
,
1001
0100
0010
1000
0101
0010
0001
0100
1001
0010
0100
0001
1010
0100
1000
0001
,
1010
0100
0010
0001
0100
0010
0001
0010
1000
0100
0010
0001
0010
0100
1000
0010
,
1001
0100
0010
0100
1000
0100
0011
0100
1000
0100
0010
0001
1010
0100
0010
0100
,
1001
0010
0100
0010
0001
0010
1100
0010
0001
0001
1000
0010
1100
0001
0010
0001
,
1010
0100
0010
1000
0101
0010
0001
0100
1001
0010
0100
0001
1010
0100
0010
0100
,
1001
0100
0010
0001
1010
0100
0010
1000
0101
1010
0101
0010
1001
0110
1001
0110
,
1001
0010
1100
0001
0110
1000
0011
0100
1001
0100
1001
0010
0100
0001
1100
0010
,
0100
0001
0110
1000
0101
0010
1100
0001
0110
1000
0110
0001
0100
0010
1001
0100
,
1001
0010
0101
0010
1100
0001
0110
1000
0101
1000
0101
0010
1000
0100
0011
0100
,
0011
0100
1010
0001
0110
1000
0101
0010
1001
0100
1001
0010
1100
0001
1100
0010
,
1001
0100
0011
0100
1010
0001
1010
0100
0011
1000
0011
0100
0010
1000
0101
0010
,
1001
0100
0011
0100
1001
0010
0101
0010
1001
0100
1001
0010
1000
0001
0110
1000
,
0110
0001
1100
0010
0101
0010
1001
0100
0011
0100
0011
1000
0010
0100
0011
1000
,
0011
0100
1010
0001
0110
1000
0101
0010
1001
0010
1100
0010
0101
0010
2002
0000
,
3003
0000
0000
0000
;
